Das Schweigen der Laemmer 1991 German DTS DUBBED DL 2160p WebRip x265 iNTERNAL – ANTiPiRAToS

Das Schweigen der Lämmer ()

Director: DRS;ORF;Ombra-Film;Westdeutscher Rundfunk (WDR)
Actors: Jonathan Demme
Genre: Crime
Runtime: 113
Language/s: ,
Video Stream: WEB-RIP
Audio Stream: DTS 5.1
Video Codec: MPEG-H H.265 / HEVC
Size: 32383 MB
Password: – not required –

Download:

Rapidgator.net

Description:

Die junge, psychologisch geschulte FBI-Agentin Clarice Starling wird auf den Fall eines Serienmörders angesetzt. „Buffalo Bill“, wie sich der Psychopath selbst nennt, tötet zumeist junge Mädchen, zieht ihnen die Haut ab und versenkt sie in abgelegenen Seen. Um Hinweise auf Motiv und Täter zu bekommen, will Clarice einen anderen Serienkiller interviewen, den inhaftierten Dr. Hannibal Lecter. Der hochintelligente, aber gemeingefährliche Lecter durchschaut Clarices Absicht – und macht sie zum Spielball seiner kühl kalkulierenden, grausamen Lust…


NFO:

show NFO

https://www.imdb.com/title/tt0102926/

Notes: Aufgrund der schlechten Verteilung von PiRAToS sind die meisten Release fast ueberall Incomplete.
Da helfen wir natürlich gerne aus, wir bringen jedes Release erneut was nicht vollstaendig ist.

PS: Nun internal getaggt, weil die Unvollständigkeit bevorzugt wird!

General
Unique ID : (0x 6A0E1EE0C69)
Complete name : C:\Video\packed\antipiratos-schweigen-2160p.mkv
Format : Matroska
Format version : Version 4
File size : 31.5 GiB
Duration : 1 h 58 min
Overall bit rate mode : Variable
Overall bit rate : 38.1 Mb/s
Encoded date : UTC 2020-03-30 08:12:51
Writing application : mkvmerge v15.0.0 (‚Duel with the Devil‘) 64-bit
Writing library : libebml v1.3.5 + libmatroska v1.4.5

Video
ID : 1
Format : HEVC
Format/Info : High Efficiency Video Coding
Commercial name : HDR10
Format profile : Main [email protected]@Main
Codec ID : V_MPEGH/ISO/HEVC
Duration : 1 h 58 min
Bit rate : 34.5 Mb/s
Width : 3 840 pixels
Height : 2 160 pixels
Display aspect ratio : 16:9
Frame rate mode : Constant
Frame rate : 23.976 (24000/1001) FPS
Color space : YUV
Chroma subsampling : 4:2:0
Bit depth : 10 bits
Bits/(Pixel*Frame) : 0.174
Stream size : 28.6 GiB (91%)
Writing library : x265 2.6+31- :[Windows][GCC 7.2.0][64 bit“ target=“_blank“ rel=“noopener“> 10bit
Encoding settings : cpuid=1173503 / frame-threads=3 / numa-pools=8 / wpp / no-pmode / no-pme / no-psnr / no-ssim / log-level=2 / input-csp=1 / input-res=3840×2160 / interlace=0 / total-frames=170582 / level-idc=0 / high-tier=1 / uhd-bd=0 / ref=3 / no-allow-non-conformance / repeat-headers / annexb / no-aud / no-hrd / info / hash=0 / no-temporal-layers / open-gop / min-keyint=23 / keyint=250 / gop-lookahead=0 / bframes=4 / b-adapt=2 / b-pyramid / bframe-bias=0 / rc-lookahead=20 / lookahead-slices=8 / scenecut=40 / radl=0 / no-intra-refresh / ctu=64 / min-cu-size=8 / no-rect / no-amp / max-tu-size=32 / tu-inter-depth=1 / tu-intra-depth=1 / limit-tu=0 / rdoq-level=0 / dynamic-rd=0.00 / no-ssim-rd / signhide / no-tskip / nr-intra=0 / nr-inter=0 / no-constrained-intra / strong-intra-smoothing / max-merge=2 / limit-refs=3 / no-limit-modes / me=1 / subme=2 / merange=57 / temporal-mvp / weightp / no-weightb / no-analyze-src-pics / deblock=0:0 / sao / no-sao-non-deblock / rd=3 / no-early-skip / rskip / no-fast-intra / no-tskip-fast / no-cu-lossless / no-b-intra / no-splitrd-skip / rdpenalty=0 / psy-rd=2.00 / psy-rdoq=0.00 / no-rd-refine / no-lossless / cbqpoffs=0 / crqpoffs=0 / rc=crf / crf=17.0 / qcomp=0.60 / qpstep=4 / stats-write=0 / stats-read=0 / ipratio=1.40 / pbratio=1.30 / aq-mode=1 / aq-strength=1.00 / cutree / zone-count=0 / no-strict-cbr / qg-size=32 / no-rc-grain / qpmax=69 / qpmin=0 / no-const-vbv / sar=0 / overscan=0 / videoformat=5 / range=0 / colorprim=9 / transfer=16 / colormatrix=9 / chromaloc=0 / display-window=0 / master-display=G(13250,34500)B(7500,3000)R(34000,16000)WP(15635,16450)L( ,50) / max-cll=0,0 / min-luma=0 / max-luma=1023 / log2-max-poc-lsb=8 / vui-timing-info / vui-hrd-info / slices=1 / no-opt-qp-pps / no-opt-ref-list-length-pps / no-multi-pass-opt-rps / scenecut-bias=0.05 / no-opt-cu-delta-qp / no-aq-motion / hdr / no-hdr-opt / no-dhdr10-opt / analysis-reuse-level=5 / scale-factor=0 / refine-intra=0 / refine-inter=0 / refine-mv=0 / no-limit-sao / ctu-info=0 / no-lowpass-dct / refine-mv-type=0 / copy-pic=1
Language : German
Default : Yes
Forced : No
Color range : Limited
Color primaries : BT.2020
Transfer characteristics : PQ
Matrix coefficients : BT.2020 non-constant
Mastering display color primaries : Display P3
Mastering display luminance : min: 0.0050 cd/m2, max: 1000 cd/m2

Audio #1
ID : 2
Format : DTS
Format/Info : Digital Theater Systems
Codec ID : A_DTS
Duration : 1 h 58 min
Bit rate mode : Constant
Bit rate : 768 kb/s
Channel(s) : 6 channels
Channel layout : C L R Ls Rs LFE
Sampling rate : 48.0 kHz
Frame rate : 93.750 FPS (512 SPF)
Bit depth : 24 bits
Compression mode : Lossy
Stream size : 651 MiB (2%)
Language : German
Default : Yes
Forced : No

Audio #2
ID : 3
Format : DTS XLL
Format/Info : Digital Theater Systems
Commercial name : DTS-HD Master Audio
Codec ID : A_DTS
Duration : 1 h 58 min
Bit rate mode : Variable
Bit rate : 2 763 kb/s
Channel(s) : 6 channels
Channel layout : C L R Ls Rs LFE
Sampling rate : 48.0 kHz
Frame rate : 93.750 FPS (512 SPF)
Bit depth : 24 bits
Compression mode : Lossless
Stream size : 2.29 GiB (7%)
Language : English
Default : No
Forced : No

Text
ID : 4
Format : UTF-8
Codec ID : S_TEXT/UTF8
Codec ID/Info : UTF-8 Plain Text
Duration : 1 h 49 min
Bit rate : 0 b/s
Count of elements : 23
Stream size : 574 Bytes (0%)
Language : German
Default : Yes
Forced : Yes

Menu
00:00:00.000 : en:00:00:00.000
00:05:20.027 : en:00:05:16.274
00:08:18.164 : en:00:08:14.411
00:11:52.336 : en:00:11:48.583
00:21:43.093 : en:00:21:39.340
00:27:02.579 : en:00:26:58.826
00:31:42.233 : en:00:31:38.480
00:35:03.601 : en:00:34:59.848
00:38:43.070 : en:00:38:39.317
00:41:18.142 : en:00:41:14.389
00:46:44.718 : en:00:46:40.965
00:49:47.734 : en:00:49:43.981
00:51:39.471 : en:00:51:35.718
00:57:49.090 : en:00:57:45.337
00:59:33.986 : en:00:59:30.233
01:01:13.628 : en:01:01:09.875
01:06:00.873 : en:01:05:57.120
01:14:17.953 : en:01:14:14.200
01:18:27.911 : en:01:18:24.158
01:21:15.370 : en:01:21:11.617
01:25:12.190 : en:01:25:08.437
01:27:19.775 : en:01:27:16.022
01:33:20.427 : en:01:33:16.674
01:36:44.798 : en:01:36:41.045
01:37:38.477 : en:01:37:34.724
01:40:00.869 : en:01:39:57.116
01:43:21.236 : en:01:43:17.483
01:51:06.117 : en:01:51:02.364

[collapse]




Dieser Beitrag wurde unter Crime, Movies, Ultra HD (2160p) abgelegt und mit , , , , , , , , , , , , , , verschlagwortet. Setze ein Lesezeichen auf den Permalink.