Creed Rockys Legacy 2015 German DL AC3 1080p BluRay x265 – FuN

Creed II: Rocky’s Legacy ()

Director: New Line Cinema
Genre: Drama
Runtime: 133
Language/s: ,
Video Stream: Blu-Ray
Audio Stream: Dolby Digital 5.1
Video Codec: MPEG-H H.265 / HEVC
Size: 2396 MB
Password: – not required –

Download:

Rapidgator.net

Description:

Adonis hat seinen Vater, den Box-Weltmeister Apollo Creed, nie kennengelernt. Denn dieser starb bereits vor seiner Geburt. Aber dass ihm das Boxen im Blut liegt, daran besteht kein Zweifel. Also macht sich Adonis auf nach Philadelphia und bittet Rocky, den einstigen Rivalen und besten Freund seines Vaters, um Hilfe. Rocky lehnt zunächst ab als Trainer für Adonis zu arbeiten, aber erkennt das Talent in dem jungen Boxer und beginnt den jungen Fighter zu trainieren. Es ist nur eine Frage der Zeit bis Adonis eine Chance auf den Titelkampf bekommt. Wird es ihm gelingen das Herz eines echten Kämpfers zu entwickeln?


NFO:

show NFO

Format : Matroska
Format version : Version 4
File size : 2.34 GiB
Duration : 2 h 13 min
Overall bit rate : 2 515 kb/s
Encoded date : UTC 2016-12-19 05:52:15 / UTC 2016-12-17T06:41:45Z
Writing application : mkvmerge v6.1.0 (‚Old Devil‘) built on Mar 2 2013 14:32:37
Writing library : libebml v1.3.0 + libmatroska v1.4.0 / Lavf55.12.0

Video
ID : 1
Format : HEVC
Format/Info : High Efficiency Video Coding
Format profile : [email protected]@Main
Codec ID : V_MPEGH/ISO/HEVC
Duration : 2 h 13 min
Bit rate : 1 185 kb/s
Width : 1 920 pixels
Height : 800 pixels
Display aspect ratio : 2.40:1
Frame rate mode : Constant
Frame rate : 23.976 (24000/1001) FPS
Color space : YUV
Chroma subsampling : 4:2:0
Bit depth : 8 bits
Bits/(Pixel*Frame) : 0.032
Stream size : 1.10 GiB (47%)
Writing library : x265 1.9:[Windows][GCC 4.9.0][64 bit“ target=“_blank“ rel=“noopener“> 8bit
Encoding settings : wpp / ctu=64 / min-cu-size=8 / max-tu-size=32 / tu-intra-depth=1 / tu-inter-depth=1 / me=1 / subme=2 / merange=57 / no-rect / no-amp / max-merge=2 / temporal-mvp / no-early-skip / rdpenalty=0 / no-tskip / no-tskip-fast / strong-intra-smoothing / no-lossless / no-cu-lossless / no-constrained-intra / no-fast-intra / open-gop / no-temporal-layers / interlace=0 / keyint=240 / min-keyint=24 / scenecut=40 / rc-lookahead=20 / lookahead-slices=5 / bframes=4 / bframe-bias=0 / b-adapt=2 / ref=3 / limit-refs=3 / no-limit-modes / weightp / no-weightb / aq-mode=1 / qg-size=32 / aq-strength=1.00 / cbqpoffs=0 / crqpoffs=0 / rd=3 / psy-rd=2.00 / rdoq-level=0 / psy-rdoq=0.00 / signhide / deblock / sao / no-sao-non-deblock / b-pyramid / cutree / no-intra-refresh / rc=crf / crf=23.0 / qcomp=0.60 / qpmin=0 / qpmax=51 / qpstep=4 / ipratio=1.40 / pbratio=1.30
Default : Yes
Forced : No
Color range : Limited
Color primaries : BT.709
Transfer characteristics : BT.709
Matrix coefficients : BT.709
Duration_Source : General_Duration

Audio #1
ID : 2
Format : AC-3
Format/Info : Audio Coding 3
Commercial name : Dolby Digital
Codec ID : A_AC3
Duration : 2 h 13 min
Bit rate mode : Constant
Bit rate : 640 kb/s
Channel(s) : 6 channels
Channel layout : L R C LFE Ls Rs
Sampling rate : 48.0 kHz
Frame rate : 31.250 FPS (1536 SPF)
Compression mode : Lossy
Stream size : 610 MiB (25%)
Title : Surround
Language : German
Service kind : Complete Main
Default : Yes
Forced : Yes
Duration_Source : General_Duration

Audio #2
ID : 3
Format : AC-3
Format/Info : Audio Coding 3
Commercial name : Dolby Digital
Codec ID : A_AC3
Duration : 2 h 13 min
Bit rate mode : Constant
Bit rate : 640 kb/s
Channel(s) : 6 channels
Channel layout : L R C LFE Ls Rs
Sampling rate : 48.0 kHz
Frame rate : 31.250 FPS (1536 SPF)
Compression mode : Lossy
Delay relative to video : -5 ms
Stream size : 610 MiB (25%)
Title : Surround
Language : English
Service kind : Complete Main
Default : No
Forced : No
Duration_Source : General_Duration

Text #1
ID : 4
Format : ASS
Codec ID : S_TEXT/ASS
Codec ID/Info : Advanced Sub Station Alpha
Compression mode : Lossless
Language : German
Default : Yes
Forced : Yes

Text #2
ID : 5
Format : VobSub
Muxing mode : zlib
Codec ID : S_VOBSUB
Codec ID/Info : Picture based subtitle format used on DVDs
Language : German
Default : No
Forced : No

Text #3
ID : 6
Format : VobSub
Muxing mode : zlib
Codec ID : S_VOBSUB
Codec ID/Info : Picture based subtitle format used on DVDs
Language : English
Default : No
Forced : No

Menu
00:00:00.000 : :00:00:00.000
00:09:14.470 : :00:09:14.387
00:22:06.950 : :00:22:06.742
00:31:32.182 : :00:31:31.932
00:41:34.742 : :00:41:34.659
00:52:18.093 : :00:52:18.010
01:01:32.188 : :01:01:32.063
01:09:14.150 : :01:09:13.941
01:19:01.153 : :01:19:00.986
01:25:13.775 : :01:25:13.650
01:32:27.875 : :01:32:27.792
01:41:16.570 : :01:41:16.445
01:50:14.649 : :01:50:14.441
02:01:07.885 : :02:01:07.719
02:06:35.254 : :02:06:34.962

[collapse]




Dieser Beitrag wurde unter Drama, Full HD (1080p), Movies abgelegt und mit , , , , , , , , , , , verschlagwortet. Setze ein Lesezeichen auf den Permalink.