Candymans Fluch 1992 Remastered Unrated German AC3D DL 1080p BluRay x264 – Jakopo

Candymans Fluch ()

Director: TriStar Pictures
Genre: Drama
Runtime: 99
Language/s: ,
Video Stream: Blu-Ray
Audio Stream: Dolby Digital 5.1
Video Codec: MPEG-4 H.264 / AVC
Size: 6547 MB
Password: – not required –

Download:

Rapidgator.net

Description:

Helen Lyle ist eine Studentin in Chicago, die an einer Arbeit über urbane Legenden sitzt und bei ihren Nachforschungen auf die Geschichte vom Candyman stößt. Er war ein Afroamerikaner, der wegen seiner verbotenen Liebe zu einem weißen Mädchen von einer Gang auf brutale Weise hingerichtet wurde. Die Schergen sägten ihm eine Hand ab und übergossen ihn mit Honig, sodass hunderte Bienen ihn zu Tode stachen. Die Legende besagt, dass der Candyman zurückkehrt, wenn sein Name fünf Mal genannt wird. Helen glaubt der Geschichte kein Wort, bis sie selbst den Namen fünfmal ausgesprochen hat. Daraufhin beginnt eine Serie grausamer Morde. Jetzt muss sich die aufgeklärte Studentin dem Dämonen stellen, der in ihrem Umfeld auf brutale Weise sein Werk verrichtet. Dabei kann sie kaum auf Hilfe hoffen, denn niemand glaubt ihr die Geschichte vom Candyman.


NFO:

show NFO

Format : Matroska
Format version : Version 4
File size : 6.38 GiB
Duration : 1 h 39 min
Overall bit rate : 9 196 kb/s
Encoded date : UTC 2018-10-27 23:49:14
Writing application : mkvmerge v28.1.0 (‚Morning Child‘) 64-bit
Writing library : libebml v1.3.6 + libmatroska v1.4.9

Video
ID : 1
Format : AVC
Format/Info : Advanced Video Codec
Format profile : [email protected]
Format settings : CABAC / 4 Ref Frames
Format settings, CABAC : Yes
Format settings, Reference : 4 frames
Codec ID : V_MPEG4/ISO/AVC
Duration : 1 h 39 min
Bit rate : 8 814 kb/s
Width : 1 920 pixels
Height : 1 040 pixels
Display aspect ratio : 1.85:1
Frame rate mode : Constant
Frame rate : 23.976 (24000/1001) FPS
Color space : YUV
Chroma subsampling : 4:2:0
Bit depth : 8 bits
Scan type : Progressive
Bits/(Pixel*Frame) : 0.184
Stream size : 6.11 GiB (96%)
Writing library : x264 core 157 r2935 545de2f
Encoding settings : cabac=1 / ref=4 / deblock=1:-3:-3 / analyse=0x3:0x113 / me=umh / subme=8 / psy=1 / psy_rd=1.00:0.00 / mixed_ref=1 / me_range=32 / chroma_me=1 / trellis=1 / 8x8dct=1 / cqm=0 / deadzone=21,11 / fast_pskip=1 / chroma_qp_offset=-2 / threads=18 / lookahead_threads=3 / sliced_threads=0 / nr=0 / decimate=1 / interlaced=0 / bluray_compat=0 / constrained_intra=0 / bframes=3 / b_pyramid=2 / b_adapt=2 / b_bias=0 / direct=3 / weightb=1 / open_gop=0 / weightp=2 / keyint=240 / keyint_min=24 / scenecut=40 / intra_refresh=0 / rc_lookahead=50 / rc=2pass / mbtree=1 / bitrate=8814 / ratetol=1.0 / qcomp=0.60 / qpmin=0 / qpmax=69 / qpstep=4 / cplxblur=20.0 / qblur=0.5 / ip_ratio=1.40 / aq=3:0.80
Language : German
Default : Yes
Forced : No

Audio #1
ID : 2
Format : AC-3
Format/Info : Audio Coding 3
Commercial name : Dolby Digital
Codec ID : A_AC3
Duration : 1 h 39 min
Bit rate mode : Constant
Bit rate : 192 kb/s
Channel(s) : 2 channels
Channel layout : L R
Sampling rate : 48.0 kHz
Frame rate : 31.250 FPS (1536 SPF)
Compression mode : Lossy
Stream size : 136 MiB (2%)
Language : German
Service kind : Complete Main
Default : Yes
Forced : No

Audio #2
ID : 3
Format : AC-3
Format/Info : Audio Coding 3
Commercial name : Dolby Digital
Codec ID : A_AC3
Duration : 1 h 39 min
Bit rate mode : Constant
Bit rate : 192 kb/s
Channel(s) : 2 channels
Channel layout : L R
Sampling rate : 48.0 kHz
Frame rate : 31.250 FPS (1536 SPF)
Compression mode : Lossy
Stream size : 136 MiB (2%)
Language : English
Service kind : Complete Main
Default : No
Forced : No

Text #1
ID : 4
Format : UTF-8
Codec ID : S_TEXT/UTF8
Codec ID/Info : UTF-8 Plain Text
Duration : 1 h 32 min
Bit rate : 44 b/s
Count of elements : 800
Stream size : 30.3 KiB (0%)
Title : German Full
Language : German
Default : No
Forced : No

Text #2
ID : 5
Format : UTF-8
Codec ID : S_TEXT/UTF8
Codec ID/Info : UTF-8 Plain Text
Duration : 1 h 32 min
Bit rate : 43 b/s
Count of elements : 1039
Stream size : 29.6 KiB (0%)
Title : Englisch Full
Language : English
Default : No
Forced : No

[collapse]




Dieser Beitrag wurde unter Drama, Full HD (1080p), Movies abgelegt und mit , , , , , , , , , , , , verschlagwortet. Setze ein Lesezeichen auf den Permalink.